<?xml version="1.0" standalone="no"?>
<!DOCTYPE svg PUBLIC "-//W3C//DTD SVG 1.1//EN" "http://www.w3.org/Graphics/SVG/1.1/DTD/svg11.dtd">
<svg xmlns="http://www.w3.org/2000/svg">
<defs >
<font id="Lexend" horiz-adv-x="588" ><font-face
    font-family="Lexend ExtraLight"
    units-per-em="1000"
    panose-1="0 0 0 0 0 0 0 0 0 0"
    ascent="1000"
    descent="-250"
    alphabetic="0" />
<glyph unicode=" " horiz-adv-x="280" />
<glyph unicode="!" horiz-adv-x="248" d="M115 241Q108 304 105 371T100 505T99 630V700H155V630Q155 568 154 500T150 366T139 241H115ZM124 -10Q103 -10 92 3T80 40Q80 62 92 76T124 90Q145 90 156 77T168 40Q168 18 156 4T124 -10Z" />
<glyph unicode="&quot;" horiz-adv-x="381" d="M228 442L261 700H331L264 442H228ZM50 442L83 700H153L86 442H50Z" />
<glyph unicode="#" horiz-adv-x="684" d="M394 0L514 700H563L445 0H394ZM38 200V246H609V200H38ZM121 0L241 700H290L172 0H121ZM76 466V512H646V466H76Z" />
<glyph unicode="$" horiz-adv-x="593" d="M301 -10Q226 -10 160 22T53 103L90 139Q130 95 182 68T303 40Q356 40 398 58T464 109T489 183Q489 209 481 229T456 264T416 290T361 311T290 331Q225 347 180 370T111 430T87 519Q87 560 103 594T150 653T219 691T305
705Q386 705 440 675T527 600L490 564Q461 603 415 629T305 655Q257 655 220 638T160 589T138 518Q138 491 148 472T179 437T235 409T321 382Q372 369 412 352T481 313T525 259T540 186Q540 130 509 86T424 16T301 -10ZM276 -91V363L325 330V-91H276ZM329 330L280
363V782H329V330Z" />
<glyph unicode="%" horiz-adv-x="849" d="M158 0L624 700H682L216 0H158ZM198 329Q153 329 119 353T65 420T45 518Q45 573 64 616T119 684T199 709Q244 709 278 685T332 617T352 518Q352 465 332 422T277 354T198 329ZM199 375Q232 375 255 392T290 441T303 519Q303
564 291 596T255 646T198 663Q166 663 143 646T107 596T94 518Q94 473 106 441T142 392T199 375ZM641 -9Q596 -9 562 15T508 82T488 180Q488 235 507 278T562 346T642 371Q687 371 721 347T775 279T795 180Q795 127 775 84T720 16T641 -9ZM642 37Q675 37 698 54T733
103T746 181Q746 226 734 258T698 308T641 325Q609 325 586 308T550 258T537 180Q537 135 549 103T585 54T642 37Z" />
<glyph unicode="&amp;" horiz-adv-x="698" d="M578 0L512 69L493 92L295 308Q258 350 234 380T195 433T174 477T168 524Q168 577 194 617T267 681T373 705Q421 705 460 690T527 646T568 579L526 553Q504 609 467 632T374 655Q327 655 293 641T240 598T221 527Q221
502 232 477T262 428T300 383T336 343L529 129L550 106L650 0H578ZM316 -10Q237 -10 177 18T84 98T50 218Q50 291 93 349T221 438L254 399Q182 379 143 332T103 222Q103 170 132 129T212 64T323 40Q377 40 422 60T502 119T558 210T589 329H646Q638 268 619 216T570
122T503 51T418 6T316 -10Z" />
<glyph unicode="&apos;" horiz-adv-x="193" d="M50 442L83 700H153L86 442H50Z" />
<glyph unicode="(" horiz-adv-x="350" d="M270 -186Q148 -110 84 4T20 258Q20 397 84 511T271 702L300 669Q187 590 129 486T70 258Q70 135 128 31T300 -153L270 -186Z" />
<glyph unicode=")" horiz-adv-x="350" d="M79 -186L50 -153Q163 -74 221 30T280 258Q280 381 222 485T50 669L80 702Q202 626 266 512T330 258Q330 119 266 5T79 -186Z" />
<glyph unicode="*" horiz-adv-x="397" d="M175 376L183 521L191 517L68 441L45 480L178 545V531L45 597L67 636L193 558L183 547L175 700H221L213 550L201 557L330 636L352 597L220 532V544L352 480L329 441L204 518L213 520L221 376H175Z" />
<glyph unicode="+" horiz-adv-x="591" d="M55 262V310H536V262H55ZM270 42V525H320V42H270Z" />
<glyph unicode="," horiz-adv-x="233" d="M78 -151L60 -125Q88 -108 103 -89T118 -49Q118 -37 115 -27T95 -3Q86 4 80 14T73 37Q73 54 84 64T114 75Q135 75 149 66T170 38T178 -6Q178 -30 173 -49T155 -86T124 -120T78 -151Z" />
<glyph unicode="-" horiz-adv-x="394" d="M58 246V297H336V246H58Z" />
<glyph unicode="." horiz-adv-x="228" d="M114 -10Q93 -10 82 3T70 40Q70 62 82 76T114 90Q135 90 146 77T158 40Q158 18 146 4T114 -10Z" />
<glyph unicode="/" horiz-adv-x="563" d="M55 -107L455 700H508L110 -107H55Z" />
<glyph unicode="0" horiz-adv-x="616" d="M308 -10Q225 -10 168 32T80 154T50 350Q50 465 80 545T167 668T308 710Q391 710 448 668T536 546T566 350Q566 235 536 155T449 32T308 -10ZM308 40Q407 40 460 120T513 350Q513 499 460 579T308 660Q209 660 156 580T103
350Q103 201 156 121T308 40Z" />
<glyph unicode="1" horiz-adv-x="419" d="M198 20V657L220 642L96 558L80 607L240 710H248V20H198ZM103 0V50H346V0H103Z" />
<glyph unicode="2" horiz-adv-x="548" d="M93 0L78 36L333 323Q350 342 368 366T403 419T430 475T440 530Q440 571 421 600T366 644T285 660Q247 660 210 646T141 596T93 500L51 524Q70 587 105 628T187 690T290 710Q346 710 392 687T466 623T494 528Q494 503
488 479T472 433T447 388T415 343T377 298L135 25L132 47H516V0H93Z" />
<glyph unicode="3" horiz-adv-x="529" d="M260 -10Q186 -10 128 23T20 138L65 166Q95 118 126 91T192 52T264 40Q313 40 353 63T416 126T440 215Q440 265 417 305T353 369T264 393Q248 393 230 389T190 373T143 336L125 382L402 679L415 652H79V700H434L454 660L205
402L190 417Q207 429 224 436T266 443Q314 443 355 426T427 377T475 305T493 216Q493 153 463 102T379 20T260 -10Z" />
<glyph unicode="4" horiz-adv-x="620" d="M406 0V647L425 640L79 217L68 240H578V190H75L46 249L415 700H456V0H406Z" />
<glyph unicode="5" horiz-adv-x="568" d="M257 -7Q188 -7 132 24T39 115L73 151Q112 91 161 67T258 43Q314 43 359 70T430 141T457 240Q457 290 434 331T370 396T274 420Q245 420 213 412T151 390T100 361L68 403L109 700H487V653H124L153 669L113 402L92 407Q113
423 143 437T208 459T279 468Q344 468 395 439T477 358T508 239Q508 169 475 114T385 26T257 -7Z" />
<glyph unicode="6" horiz-adv-x="589" d="M300 -10Q248 -10 204 8T128 59T78 139T60 240Q60 264 66 293T84 358T115 431T157 510L269 700H319L323 690L207 496Q189 466 173 434T138 362T98 275L92 319Q111 351 134 376T184 419T241 447T305 457Q367 457 418 426T499
342T529 224Q529 157 498 104T414 21T300 -10ZM294 39Q345 39 386 63T452 129T476 222Q476 273 452 315T387 382T294 407Q243 407 202 382T137 315T113 222Q113 171 137 130T202 64T294 39Z" />
<glyph unicode="7" horiz-adv-x="491" d="M102 0L401 674L414 653H20V700H432L444 647L158 0H102Z" />
<glyph unicode="8" horiz-adv-x="580" d="M290 -3Q225 -3 172 24T86 98T54 202Q54 232 64 260T94 312T143 355T209 389L203 368Q175 374 152 389T114 424T90 470T81 520Q81 570 109 611T184 676T290 700Q348 700 395 676T471 611T499 520Q499 495 491 471T467
426T428 390T376 368L373 385Q407 374 435 355T483 311T515 258T526 202Q526 144 495 98T410 24T290 -3ZM290 47Q343 47 384 67T449 123T473 202Q473 245 449 278T384 331T290 350Q238 350 197 331T131 279T107 202Q107 159 131 124T196 68T290 47ZM290 390Q335
390 370 406T425 452T446 519Q446 556 426 585T370 632T290 650Q245 650 210 633T155 586T134 519Q134 482 154 453T210 407T290 390Z" />
<glyph unicode="9" horiz-adv-x="549" d="M278 0L274 10L475 418L485 401Q464 362 440 333T387 283T329 253T264 243Q202 243 151 274T70 358T40 476Q40 543 72 596T158 679T277 710Q327 710 369 692T442 643T491 569T509 477Q509 443 499 403T472 322T439 242T407
174L324 0H278ZM275 293Q326 293 367 318T432 385T456 478Q456 529 432 570T367 636T275 661Q224 661 183 637T117 571T93 478Q93 427 117 385T182 318T275 293Z" />
<glyph unicode=":" horiz-adv-x="228" d="M114 -10Q93 -10 82 3T70 40Q70 62 82 76T114 90Q135 90 146 77T158 40Q158 18 146 4T114 -10ZM114 431Q93 431 82 444T70 481Q70 503 82 517T114 531Q135 531 146 518T158 481Q158 459 146 445T114 431Z" />
<glyph unicode=";" horiz-adv-x="243" d="M88 -151L70 -125Q98 -108 113 -89T128 -49Q128 -37 125 -27T105 -3Q96 4 90 14T83 37Q83 54 94 64T124 75Q145 75 159 66T180 38T188 -6Q188 -30 183 -49T165 -86T134 -120T88 -151ZM133 431Q112 431 101 444T89 481Q89
503 101 517T133 531Q154 531 165 518T177 481Q177 459 165 445T133 431Z" />
<glyph unicode="&lt;" horiz-adv-x="489" d="M406 25L54 227V278L406 480L429 443L79 241V264L429 62L406 25Z" />
<glyph unicode="=" horiz-adv-x="566" d="M60 341V389H506V341H60ZM60 173V221H506V173H60Z" />
<glyph unicode="&gt;" horiz-adv-x="489" d="M83 25L60 62L410 264V241L60 443L83 480L435 278V227L83 25Z" />
<glyph unicode="?" horiz-adv-x="498" d="M210 201L202 327Q242 337 273 350T327 381T365 418T387 461T395 511Q395 552 376 584T323 634T246 653Q197 653 152 626T71 542L35 573Q76 635 131 669T248 703Q305 703 350 678T421 609T448 511Q448 474 434 441T395
379T336 329T261 296L251 201H210ZM190 40Q190 62 202 76T234 90Q255 90 266 77T278 40Q278 18 266 4T234 -10Q213 -10 202 3T190 40Z" />
<glyph unicode="@" horiz-adv-x="979" d="M421 -162Q337 -162 269 -135T152 -59T77 59T50 212Q50 319 88 409T196 567T357 672T556 710Q639 710 707 687T825 620T902 518T929 388Q929 313 909 252T856 147T779 79T689 55Q661 55 643 65T617 95T608 138Q608 152
612 172T627 229L644 224Q627 171 595 134T521 76T429 55Q382 55 346 77T288 140T267 233Q267 287 284 337T331 426T404 487T496 510Q533 510 566 497T624 456T666 383L647 376L665 501H713L654 180Q649 154 652 135T667 107T699 97Q733 97 765 117T824 176T866
268T882 385Q882 470 841 533T726 632T555 667Q455 667 371 631T226 531T131 388T97 218Q97 143 120 81T187 -25T290 -94T422 -118Q466 -118 507 -109T584 -84T652 -51L674 -89Q637 -112 594 -128T505 -153T421 -162ZM438 100Q486 100 525 123T591 189T630 288Q632
300 633 309T635 327Q635 368 618 399T571 447T500 465Q455 465 413 436T344 354T317 232Q317 173 350 137T438 100Z" />
<glyph unicode="A" horiz-adv-x="647" d="M25 0L291 700H359L622 0H566L385 484Q373 515 365 539T348 585T332 631T314 687H331Q321 654 313 629T296 582T278 535T257 478L77 0H25ZM134 211L153 261H496L515 211H134Z" />
<glyph unicode="B" horiz-adv-x="661" d="M108 0V700H384Q439 700 482 678T549 615T574 524Q574 466 540 423T448 362L445 381Q495 372 532 347T590 286T611 206Q611 161 595 124T550 58T482 15T394 0H108ZM158 50H388Q437 50 475 69T534 121T556 198Q556 239
534 271T472 321T383 339H158V50ZM158 389H378Q420 389 452 406T502 452T521 519Q521 576 483 613T376 650H158V389Z" />
<glyph unicode="C" horiz-adv-x="674" d="M403 -10Q326 -10 262 16T150 91T76 206T50 350Q50 428 75 492T146 605T255 679T393 705Q440 705 488 690T577 647T645 585L608 546Q586 578 551 602T475 641T393 655Q330 655 277 633T185 569T125 472T103 350Q103 283
125 226T187 128T282 63T403 40Q443 40 482 51T554 83T605 130L632 86Q608 58 571 37T490 3T403 -10Z" />
<glyph unicode="D" horiz-adv-x="739" d="M108 0V700H363Q431 700 490 674T593 602T663 491T689 350Q689 274 664 210T594 99T490 26T363 0H108ZM158 33L144 50H358Q415 50 465 72T554 134T614 229T636 350Q636 416 614 470T554 565T466 628T358 650H141L158 665V33Z" />
<glyph unicode="E" horiz-adv-x="585" d="M108 0V700H515V650H158V50H511V0H108ZM132 336V386H458V336H132Z" />
<glyph unicode="F" horiz-adv-x="585" d="M108 0V700H158V0H108ZM139 326V376H486V326H139ZM138 650V700H535V650H138Z" />
<glyph unicode="G" horiz-adv-x="762" d="M415 -10Q337 -10 271 16T155 90T78 203T50 347Q50 425 77 490T152 604T265 678T405 705Q458 705 510 690T605 648T673 587L639 552Q613 582 575 605T492 641T407 655Q343 655 288 632T191 568T126 471T103 347Q103 280
126 224T193 127T293 63T417 40Q473 40 520 56T601 103T655 173T674 260V308L692 282H416V332H721Q722 327 722 317T723 294T724 273Q724 212 701 160T635 70T536 11T415 -10Z" />
<glyph unicode="H" horiz-adv-x="744" d="M586 0V700H636V0H586ZM108 0V700H158V0H108ZM137 324V374H604V324H137Z" />
<glyph unicode="I" horiz-adv-x="412" d="M68 0V50H181V650H68V700H344V650H231V50H344V0H68Z" />
<glyph unicode="J" horiz-adv-x="623" d="M269 -10Q236 -10 207 -2T152 23T105 63T68 117L104 155Q120 125 139 103T179 67T223 47T270 40Q316 40 351 62T407 125T427 216V650H300V700H579V650H481V213Q481 165 466 124T422 53T355 7T269 -10Z" />
<glyph unicode="K" horiz-adv-x="669" d="M137 217V284L561 700H631L137 217ZM108 0V700H158V0H108ZM581 0L288 388L324 422L644 0H581Z" />
<glyph unicode="L" horiz-adv-x="536" d="M108 0V700H158V50H501V0H108Z" />
<glyph unicode="M" horiz-adv-x="852" d="M108 0V700H156L437 243H416L701 700H744V0H694V351Q694 441 695 513T703 656L718 637L445 205H403L139 631L149 656Q155 589 156 519T158 351V0H108Z" />
<glyph unicode="N" horiz-adv-x="781" d="M108 0V700H154L640 63L628 37Q627 45 627 79T626 160T625 258T624 351T623 417V700H673V0H625L136 641L150 669Q151 649 152 613T154 535T156 452T157 382T158 344V0H108Z" />
<glyph unicode="O" horiz-adv-x="787" d="M393 -10Q318 -10 256 16T147 90T75 203T50 347Q50 425 75 490T146 604T255 678T393 705Q468 705 531 679T640 604T711 491T737 347Q737 269 712 204T640 91T531 17T393 -10ZM393 40Q456 40 509 62T602 126T662 224T684
347Q684 414 663 470T602 568T510 632T393 655Q330 655 277 632T185 568T125 471T103 347Q103 280 124 224T184 127T276 63T393 40Z" />
<glyph unicode="P" horiz-adv-x="611" d="M108 0V700H377Q430 700 471 674T537 603T561 498Q561 435 537 387T472 311T377 283H158V0H108ZM158 333H386Q421 333 448 354T492 413T508 500Q508 543 492 577T449 630T386 650H158V333Z" />
<glyph unicode="Q" horiz-adv-x="787" d="M659 -96L411 231L450 258L699 -67L659 -96ZM393 -10Q318 -10 256 16T147 90T75 203T50 347Q50 425 75 490T146 604T255 678T393 705Q468 705 531 679T640 604T711 491T737 347Q737 269 712 204T640 91T531 17T393 -10ZM393
40Q456 40 509 62T602 126T662 224T684 347Q684 414 663 470T602 568T510 632T393 655Q330 655 277 632T185 568T125 471T103 347Q103 280 124 224T184 127T276 63T393 40Z" />
<glyph unicode="R" horiz-adv-x="627" d="M108 0V700H360Q422 700 470 672T547 597T575 489Q575 429 549 384T476 314T370 288H158V0H108ZM544 0L370 301L412 327L602 0H544ZM158 338H376Q419 338 452 357T503 410T522 487Q522 534 501 571T443 629T357 650H158V338Z" />
<glyph unicode="S" horiz-adv-x="593" d="M301 -10Q251 -10 206 5T122 49T54 122L90 159Q134 95 188 68T303 40Q356 40 398 58T464 109T489 183Q489 211 480 231T453 266T411 292T356 313T290 333Q242 347 205 362T141 398T101 448T87 519Q87 560 103 594T150
653T219 691T305 705Q359 705 399 690T471 646T527 580L490 544Q468 578 441 603T381 641T305 655Q257 655 220 638T160 589T138 518Q138 490 148 469T181 433T238 405T321 380Q370 368 410 352T479 314T524 261T540 186Q540 130 509 86T424 16T301 -10Z" />
<glyph unicode="T" horiz-adv-x="517" d="M230 0V650H25V700H492V650H280V0H230Z" />
<glyph unicode="U" horiz-adv-x="753" d="M374 -7Q297 -7 237 28T142 126T108 268V700H158V277Q158 209 186 156T263 73T374 43Q439 43 489 73T567 156T596 277V700H645V268Q645 188 610 126T514 29T374 -7Z" />
<glyph unicode="V" horiz-adv-x="647" d="M288 0L25 700H81L262 216Q274 185 282 161T299 115T315 69T333 13H306Q320 56 330 87T352 149T380 222L568 700H622L346 0H288Z" />
<glyph unicode="W" horiz-adv-x="917" d="M226 0L25 700H81L216 216Q225 185 231 164T241 125T250 87T260 38H254Q265 77 273 102T292 154T319 222L429 502H480L597 216Q610 185 621 159T642 104T662 38H656Q661 61 664 78T671 109T678 139T687 174T701 222L838
700H892L689 0H634L441 461L467 460L281 0H226Z" />
<glyph unicode="X" horiz-adv-x="622" d="M535 0L289 342L30 700H92L314 390L597 0H535ZM25 0L287 374L319 338L82 0H25ZM329 338L301 374L530 700H587L329 338Z" />
<glyph unicode="Y" horiz-adv-x="631" d="M301 0V349L308 300L25 700H87L335 348H318L548 700H606L335 289L350 357V0H301Z" />
<glyph unicode="Z" horiz-adv-x="637" d="M60 0V42L525 674L540 650H86V700H573V659L110 26L96 50H584V0H60Z" />
<glyph unicode="[" horiz-adv-x="347" d="M90 -190V700H317V653H132L138 661V-155L128 -143H317V-190H90Z" />
<glyph unicode="\" horiz-adv-x="533" d="M438 -107L40 700H93L493 -107H438Z" />
<glyph unicode="]" horiz-adv-x="347" d="M30 -190V-143H215L209 -151V665L219 653H30V700H257V-190H30Z" />
<glyph unicode="^" d="M46 368L260 727H328L542 368H487L291 698H297L100 368H46Z" />
<glyph unicode="_" horiz-adv-x="694" d="M55 -130V-82H639V-130H55Z" />
<glyph unicode="`" horiz-adv-x="500" d="M317 598L163 699L196 744L338 629L317 598Z" />
<glyph unicode="a" horiz-adv-x="607" d="M280 -10Q209 -10 153 25T65 121T32 260Q32 339 65 400T155 496T280 531Q320 531 356 519T421 486T471 435T501 372L481 385L486 520H534V0H484V130L501 149Q492 116 471 87T421 36T356 2T280 -10ZM287 40Q344 40 389
68T461 146T488 261Q488 325 462 374T391 452T287 481Q228 481 183 453T111 375T85 261Q85 198 110 148T181 69T287 40Z" />
<glyph unicode="b" horiz-adv-x="608" d="M328 -10Q288 -10 253 2T188 35T138 86T108 148L126 132L121 0H73V740H123V390L108 373Q117 406 137 435T187 485T252 519T328 531Q397 531 453 496T542 400T576 260Q576 182 544 121T455 25T328 -10ZM321 40Q381 40 426
69T497 148T523 261Q523 325 497 374T426 452T321 481Q262 481 217 453T145 375T119 261Q119 196 145 147T217 69T321 40Z" />
<glyph unicode="c" horiz-adv-x="518" d="M291 -10Q216 -10 158 25T66 121T32 261Q32 340 65 401T158 496T294 531Q358 531 410 506T498 436L466 397Q444 424 416 442T356 471T290 481Q231 481 185 453T112 375T85 261Q85 197 111 147T184 69T287 40Q320 40 352
50T412 78T463 124L495 85Q459 40 405 15T291 -10Z" />
<glyph unicode="d" horiz-adv-x="609" d="M280 -10Q209 -10 153 25T65 121T32 260Q32 339 65 400T155 496T280 531Q320 531 356 519T421 486T471 435T501 372L484 389V740H534V0H486L482 135L501 149Q492 116 471 87T421 36T356 2T280 -10ZM287 40Q344 40 389
68T461 146T488 261Q488 325 462 374T391 452T287 481Q228 481 183 453T111 375T85 261Q85 198 110 148T181 69T287 40Z" />
<glyph unicode="e" horiz-adv-x="540" d="M290 -10Q215 -10 157 24T65 119T32 261Q32 320 50 369T102 454T181 511T283 531Q337 531 380 513T454 462T499 383T512 282L511 255H69V301H484L462 283V307Q462 347 443 387T383 454T282 481Q225 481 181 456T111 383T85
264Q85 196 110 146T182 68T299 40Q336 40 375 52T463 104L489 67Q467 46 437 29T370 1T290 -10Z" />
<glyph unicode="f" horiz-adv-x="364" d="M136 0V621Q136 654 151 679T194 720T259 735Q291 735 315 724T356 693L337 653Q318 674 297 681T257 689Q234 689 219 681T195 658T186 620V0H168Q158 0 151 0T136 0ZM35 474V520H328V474H35Z" />
<glyph unicode="g" horiz-adv-x="610" d="M289 -230Q229 -230 181 -212T98 -167L121 -120Q141 -137 167 -150T224 -172T292 -180Q352 -180 396 -156T463 -83T487 38V136L501 149Q488 104 456 68T379 11T280 -10Q209 -10 153 25T65 121T32 260Q32 339 65 400T155
496T280 531Q312 531 341 523T396 501T443 467T478 423T501 372L482 385L487 520H537V32Q537 -31 519 -79T468 -161T389 -212T289 -230ZM287 40Q344 40 389 68T461 146T488 261Q488 325 462 374T391 452T287 481Q228 481 183 453T111 375T85 261Q85 198 110 148T181
69T287 40Z" />
<glyph unicode="h" horiz-adv-x="558" d="M73 0V740H123V400L111 381Q122 428 153 461T225 513T309 531Q369 531 408 508T467 437T486 315V0H436V313Q436 371 421 408T376 464T298 483Q261 483 229 470T174 433T137 381T123 318V0H98Q97 0 92 0T73 0Z" />
<glyph unicode="i" horiz-adv-x="242" d="M96 0V520H146V0H96ZM121 629Q99 629 87 641T75 674Q75 694 87 706T121 719Q143 719 155 707T167 674Q167 654 155 642T121 629Z" />
<glyph unicode="j" horiz-adv-x="209" d="M-9 -195L-30 -152Q13 -152 38 -139T74 -97T85 -28V520H135V-48Q135 -92 117 -125T67 -176T-9 -195ZM109 629Q87 629 75 641T63 674Q63 694 75 706T109 719Q131 719 143 707T155 674Q155 654 143 642T109 629Z" />
<glyph unicode="k" horiz-adv-x="510" d="M115 172V235L408 520H474L115 172ZM73 0V740H123V0H73ZM436 0L196 278L230 315L502 0H436Z" />
<glyph unicode="l" horiz-adv-x="200" d="M75 0V740H125V0H75Z" />
<glyph unicode="m" horiz-adv-x="901" d="M73 0V520H121L126 394L114 396Q123 428 142 453T188 495T247 522T315 531Q353 531 384 518T439 471T475 375L455 389L462 406Q472 430 491 452T536 492T594 520T664 531Q716 531 753 508T809 437T829 315V0H779V313Q779
371 765 408T722 464T651 483Q612 483 580 470T525 433T489 381T476 318V0H426V313Q426 371 412 408T368 464T297 483Q259 483 227 470T172 433T136 381T123 318V0H73Z" />
<glyph unicode="n" horiz-adv-x="558" d="M73 0V520H121L126 410H120Q131 443 160 470T229 514T315 531Q370 531 408 508T466 437T486 315V0H436V313Q436 371 421 408T375 464T300 483Q261 483 229 470T173 433T136 381T123 318V0H98Q97 0 92 0T73 0Z" />
<glyph unicode="o" horiz-adv-x="599" d="M300 -10Q222 -10 162 25T67 122T32 263Q32 341 66 401T161 496T300 531Q378 531 438 497T533 402T567 263Q567 184 533 122T439 25T300 -10ZM300 40Q362 40 410 69T486 148T514 263Q514 326 487 375T411 453T300 481Q237
481 189 453T113 376T85 263Q85 198 112 148T188 69T300 40Z" />
<glyph unicode="p" horiz-adv-x="613" d="M73 -220V520H121L126 385L113 373Q126 418 157 453T234 510T332 531Q401 531 457 496T547 400T581 260Q581 182 549 121T460 25T332 -10Q279 -10 234 11T158 67T113 148L123 135V-220H73ZM324 40Q384 40 430 68T502 147T528
260Q528 324 502 374T429 452T324 481Q265 481 219 453T146 375T119 261Q119 196 146 147T219 69T324 40Z" />
<glyph unicode="q" horiz-adv-x="610" d="M487 -220V131L501 149Q492 116 471 87T421 36T356 2T280 -10Q209 -10 153 25T65 121T32 260Q32 339 65 400T155 496T280 531Q320 531 356 519T421 486T471 435T501 372L482 385L487 520H537V-220H487ZM287 40Q345 40
391 68T464 146T491 261Q491 325 465 374T392 452T287 481Q228 481 183 453T111 375T85 261Q85 198 110 148T181 69T287 40Z" />
<glyph unicode="r" horiz-adv-x="345" d="M73 0V520H121L126 404H119Q130 437 153 466T209 513T287 531Q304 531 318 529T345 523L330 465Q316 471 303 473T280 475Q240 475 211 461T162 423T133 367T123 302V0H73Z" />
<glyph unicode="s" horiz-adv-x="479" d="M242 -10Q174 -10 121 16T40 81L78 114Q105 78 148 59T245 39Q275 39 300 45T342 64T370 93T380 133Q380 172 343 199Q326 211 300 221T239 241Q186 257 149 271T90 306Q74 323 66 342T58 385Q58 417 71 443T108 490T164
520T235 531Q272 531 308 521T375 491T429 447L395 410Q375 432 352 449T300 475T238 485Q211 485 188 478T147 458T121 427T111 388Q111 372 117 360T136 336Q153 322 181 312T252 290Q290 280 319 270T369 246Q401 226 416 199T432 137Q432 94 408 61T341 9T242
-10Z" />
<glyph unicode="t" horiz-adv-x="359" d="M152 0V659H202V0H152ZM27 474V520H342V474H27Z" />
<glyph unicode="u" horiz-adv-x="560" d="M260 -10Q196 -10 155 13T93 83T72 205V520H122V207Q122 149 137 112T183 56T261 38Q298 38 330 51T386 87T423 139T437 202V520H487V0H439L434 110H440Q429 77 401 50T336 7T260 -10Z" />
<glyph unicode="v" horiz-adv-x="505" d="M227 0L8 520H66L252 61L231 47L441 520H497L261 0H227Z" />
<glyph unicode="w" horiz-adv-x="743" d="M192 0L8 520H66L219 66L192 68L358 442H388L554 68L522 66L680 520H735L551 0H532L355 407H391L214 0H192Z" />
<glyph unicode="x" horiz-adv-x="516" d="M435 0L243 244L240 248L26 520H89L277 280L280 276L498 0H435ZM18 0L237 279L267 243L79 0H18ZM284 257L254 293L429 520H490L284 257Z" />
<glyph unicode="y" horiz-adv-x="520" d="M162 -230L259 17L270 -43L8 520H61L254 106Q265 84 273 62T292 17L262 29Q268 43 273 57T285 86L459 520H512L305 0L214 -230H162Z" />
<glyph unicode="z" horiz-adv-x="445" d="M38 0V46L342 492L359 472H38V520H391V474L84 24L70 48H407V0H38Z" />
<glyph unicode="{" horiz-adv-x="405" d="M365 -192Q324 -183 293 -168T240 -130T207 -77T196 -7L197 88Q197 154 168 191T83 229H50V271H85Q140 272 168 308T197 412L196 507Q196 586 239 629T365 692L375 654Q326 637 298 619T257 571T245 493L247 398Q247 340
224 302T153 249L152 252Q200 235 223 197T247 102L245 7Q245 -41 257 -70T297 -118T375 -154L365 -192Z" />
<glyph unicode="|" horiz-adv-x="228" d="M90 -193V740H138V-193H90Z" />
<glyph unicode="}" horiz-adv-x="405" d="M40 -192L30 -154Q80 -137 108 -119T148 -71T160 7L158 102Q158 160 181 198T252 251L253 248Q205 265 182 303T158 398L160 493Q160 541 148 570T108 619T30 654L40 692Q81 683 112 668T165 630T198 577T209 507L208
412Q208 346 237 309T322 271H355V229H320Q265 228 237 192T208 88L209 -7Q209 -86 166 -129T40 -192Z" />
<glyph unicode="~" horiz-adv-x="510" d="M368 251Q352 251 329 256T281 268T239 280Q225 284 209 288T177 296T151 300Q130 300 119 286T108 249H64Q64 295 86 320T147 346Q157 346 173 343T208 336T245 326T277 317Q291 313 307 309T340 301T368 297Q387 297
397 310T408 344H452Q452 314 442 294T414 262T368 251Z" />
<glyph unicode="&#xa0;" horiz-adv-x="280" />
<glyph unicode="&#xa1;" horiz-adv-x="248" d="M133 289Q140 226 143 159T148 25T149 -100V-170H93V-100Q93 -38 94 30T98 164T109 289H133ZM124 540Q145 540 156 527T168 490Q168 468 156 454T124 440Q103 440 92 453T80 490Q80 512 92 526T124 540Z" />
<glyph unicode="&#xa2;" horiz-adv-x="536" d="M309 78Q234 78 176 113T84 209T50 349Q50 428 83 489T176 584T312 619Q376 619 428 594T516 524L484 485Q462 512 434 530T374 559T308 569Q249 569 203 541T130 463T103 349Q103 285 129 235T201 157T301 128Q337
128 368 137T428 164T481 210L514 173Q478 128 425 103T309 78ZM277 0V88L278 122V577L277 606V700H327V605L326 577V121L327 87V0H277Z" />
<glyph unicode="&#xa3;" horiz-adv-x="610" d="M187 56L142 77Q157 85 169 103T188 147T195 201Q195 215 194 229T189 260T180 300T163 352Q150 392 144 417T136 461T134 497Q134 558 159 603T231 674T340 700Q402 700 447 678T516 616L473 583Q455 610 432 623T386
642T342 647Q295 647 260 628T204 574T184 496Q184 461 194 424T215 353Q225 323 235 289T245 224Q245 195 241 166T224 109T187 56ZM440 -10Q409 -10 377 -2T313 15Q298 20 278 25T238 35T201 40Q173 40 141 30T76 7L52 51Q87 68 128 79T217 91Q238 91 262 85T334
63Q363 53 387 47T440 41Q464 41 488 50T538 76L571 33Q543 13 510 2T440 -10ZM54 343V391H442V343H54Z" />
<glyph unicode="&#xa4;" horiz-adv-x="559" d="M279 122Q230 122 190 146T125 211T101 302Q101 352 125 393T189 458T279 482Q328 482 368 458T433 392T457 302Q457 252 433 211T369 146T279 122ZM103 106L68 142L148 217L184 182L103 106ZM148 393L68 468L103
504L184 428L148 393ZM279 168Q318 168 347 185T393 232T410 302Q410 341 394 371T348 418T279 436Q240 436 211 419T165 371T148 302Q148 263 164 233T210 185T279 168ZM456 106L375 182L411 217L491 142L456 106ZM411 393L375 428L456 504L491 468L411 393Z"
/>
<glyph unicode="&#xa5;" horiz-adv-x="631" d="M301 0V349L308 300L25 700H87L335 348H318L548 700H606L335 289L350 357V0H301ZM146 124V172H508V124H146ZM146 268V316H508V268H146Z" />
<glyph unicode="&#xa6;" horiz-adv-x="228" d="M90 -202V198H138V-202H90ZM90 341V740H138V341H90Z" />
<glyph unicode="&#xa7;" horiz-adv-x="542" d="M310 159L296 191Q329 194 358 206T405 242T423 301Q423 329 406 348T341 384L207 431Q191 437 173 448T140 477T115 517T105 566Q105 595 117 619T153 663T208 692T279 703Q316 703 348 694T408 669T461 634L435
593Q414 611 389 625T335 648T275 657Q224 657 191 633T158 566Q158 542 168 525T196 494T240 472L358 430Q410 412 442 382T475 301Q475 259 454 228T396 179T310 159ZM281 -83Q239 -83 201 -74T131 -47T74 -10L99 29Q137 -2 183 -19T285 -37Q336 -37 369 -13T402
54Q402 78 392 95T364 126T320 148L173 201Q136 215 108 244T80 324Q80 364 102 394T163 441T250 461L264 429Q232 426 202 414T151 380T131 324Q131 302 143 281T190 247L359 187Q382 179 404 161T440 117T455 54Q455 16 433 -15T372 -64T281 -83Z" />
<glyph unicode="&#xa8;" horiz-adv-x="500" d="M346 625Q324 625 312 637T300 670Q300 690 312 702T346 715Q368 715 380 703T392 670Q392 650 380 638T346 625ZM155 624Q133 624 121 636T109 669Q109 689 121 701T155 714Q177 714 189 702T201 669Q201 649 189
637T155 624Z" />
<glyph unicode="&#xa9;" horiz-adv-x="786" d="M393 -7Q318 -7 254 20T140 97T64 210T36 350Q36 425 63 489T140 603T253 679T393 707Q467 707 531 680T645 603T722 490T750 350Q750 275 723 211T646 97T532 21T393 -7ZM403 142Q343 142 295 169T218 243T189 350Q189
407 217 454T294 529T403 557Q437 557 470 546T532 512L511 475Q500 484 484 492T447 506T403 512Q357 512 320 490T260 430T237 350Q237 304 259 267T318 209T403 187Q436 187 463 195T516 221L536 185Q506 164 472 153T403 142ZM393 41Q458 41 514 65T612 131T678
229T702 350Q702 416 678 471T612 569T514 635T393 659Q329 659 273 636T174 570T108 472T84 350Q84 285 108 229T174 131T272 65T393 41Z" />
<glyph unicode="&#xaa;" horiz-adv-x="365" d="M166 391Q123 391 91 412T42 472T25 562Q25 608 42 644T92 700T170 721Q226 721 259 685T297 592L273 628V715H315V401H273V474L297 497Q290 471 273 447T228 407T166 391ZM167 428Q200 428 224 443T262 487T276
555Q276 615 247 649T167 684Q139 684 117 668T82 623T68 562Q68 521 80 491T114 445T167 428Z" />
<glyph unicode="&#xab;" horiz-adv-x="466" d="M392 52L232 259V261L392 468L432 443L290 252V268L431 78L392 52ZM199 52L39 259V261L199 468L239 443L97 252V268L238 78L199 52Z" />
<glyph unicode="&#xac;" horiz-adv-x="670" d="M562 117V359L581 347H60V394H610V117H562Z" />
<glyph unicode="&#xad;" horiz-adv-x="394" d="M58 246V297H336V246H58Z" />
<glyph unicode="&#xae;" horiz-adv-x="519" d="M260 254Q195 254 142 285T57 368T25 484Q25 532 43 573T94 647T169 696T260 714Q308 714 350 696T425 647T475 574T494 484Q494 436 476 395T426 321T351 272T260 254ZM260 294Q313 294 357 319T427 388T454 484Q454
537 428 580T357 648T260 674Q206 674 162 649T92 580T65 484Q65 431 91 388T162 320T260 294ZM319 367L268 467L303 481L361 367H319ZM179 367V611H274Q312 611 335 590T358 534Q358 500 334 478T274 456H193L218 470V367H179ZM218 479L195 492H264Q289 492 304
503T320 533Q320 553 307 564T266 575H192L218 589V479Z" />
<glyph unicode="&#xaf;" horiz-adv-x="424" d="M113 649V692H387V649H113Z" />
<glyph unicode="&#xb0;" horiz-adv-x="532" d="M266 399Q222 399 187 419T131 475T110 553Q110 597 130 632T186 688T266 709Q311 709 346 689T401 633T422 554Q422 511 402 476T346 420T266 399ZM266 438Q296 438 321 454T361 496T376 554Q376 586 361 612T321
654T266 670Q235 670 210 654T171 612T156 553Q156 521 171 495T211 454T266 438Z" />
<glyph unicode="&#xb1;" horiz-adv-x="598" d="M60 326V374H538V326H60ZM60 42V90H538V42H60ZM274 167V525H324V167H274Z" />
<glyph unicode="&#xb2;" horiz-adv-x="346" d="M69 418L56 455L189 598Q204 614 216 628T235 656T243 685Q243 710 227 724T183 739Q153 739 128 721T82 669L51 691Q67 718 87 737T132 768T185 779Q215 779 237 767T273 734T286 686Q286 666 276 646T251 607T219
570L102 446L107 458H302V418H69Z" />
<glyph unicode="&#xb3;" horiz-adv-x="342" d="M171 412Q152 412 133 416T95 428T63 446L84 480Q109 464 128 459T165 453Q206 453 232 473T258 530Q258 562 234 582T176 602Q160 602 148 599T112 586L102 609L246 741V733H73V772H286L291 734L171 625L141 618Q156
628 167 632T188 636Q237 636 269 608T301 531Q301 496 284 470T238 428T171 412Z" />
<glyph unicode="&#xb4;" horiz-adv-x="500" d="M184 598L163 629L305 744L338 699L184 598Z" />
<glyph unicode="&#xb5;" horiz-adv-x="561" d="M73 -157V520H123V203Q123 146 137 110T182 56T258 38Q296 38 328 51T386 87T424 139T438 202V520H488V0H440L435 126L449 123Q426 76 396 47T331 4T261 -10Q226 -10 198 -1T146 30T102 88L121 89L122 -157H73Z" />
<glyph unicode="&#xb6;" horiz-adv-x="615" d="M278 0V314L302 279H238Q184 279 142 306T75 379T50 486Q50 551 78 599T156 673T275 700H507V0H457V680L485 655H284L328 681V0H278Z" />
<glyph unicode="&#xb7;" horiz-adv-x="228" d="M114 254Q93 254 82 267T70 304Q70 326 82 340T114 354Q135 354 146 341T158 304Q158 282 146 268T114 254Z" />
<glyph unicode="&#xb8;" horiz-adv-x="500" d="M174 -230L167 -197Q197 -195 224 -189T268 -171T286 -140Q286 -123 271 -113T234 -100T193 -96L180 -86L240 6H284L241 -60Q288 -68 311 -87T334 -135Q334 -162 320 -180T282 -209T230 -225T174 -230Z" />
<glyph unicode="&#xb9;" horiz-adv-x="281" d="M147 431V746L159 725L78 678L60 711L172 777H188V431H168Q162 431 157 431T147 431Z" />
<glyph unicode="&#xba;" horiz-adv-x="354" d="M176 392Q134 392 101 412T49 468T30 549Q30 595 49 631T101 689T176 710Q218 710 251 689T304 631T324 549Q324 504 305 469T252 413T176 392ZM176 432Q207 432 231 447T268 488T281 549Q281 585 268 612T231 655T176
670Q144 670 121 655T86 613T73 549Q73 514 86 488T122 447T176 432Z" />
<glyph unicode="&#xbb;" horiz-adv-x="491" d="M290 53L250 78L392 269V253L251 443L290 469L450 262V260L290 53ZM74 53L34 78L176 269V253L35 443L74 469L234 262V260L74 53Z" />
<glyph unicode="&#xbc;" horiz-adv-x="771" d="M167 359V674L179 653L98 606L80 639L192 705H208V359H188Q182 359 177 359T167 359ZM126 0L592 700H650L184 0H126ZM659 121H729V83H659V121ZM474 98L468 121H641L628 111V338L656 328L474 98ZM668 0H628V97L645
83H444L436 116L628 356H668V0Z" />
<glyph unicode="&#xbd;" horiz-adv-x="803" d="M167 359V674L179 653L98 606L80 639L192 705H208V359H188Q182 359 177 359T167 359ZM126 0L592 700H650L184 0H126ZM526 0L513 37L646 180Q661 196 673 210T692 238T700 267Q700 292 684 306T640 321Q610 321 585
303T539 251L508 273Q524 300 544 319T589 350T642 361Q672 361 694 349T730 316T743 268Q743 248 733 228T708 189T676 152L559 28L564 40H759V0H526Z" />
<glyph unicode="&#xbe;" horiz-adv-x="785" d="M128 342Q109 342 90 346T52 358T20 376L41 410Q66 394 85 389T122 383Q163 383 189 403T215 460Q215 492 191 512T133 532Q117 532 105 529T69 516L59 539L203 671V663H30V702H243L248 664L128 555L98 548Q113 558
124 562T145 566Q194 566 226 538T258 461Q258 426 241 400T195 358T128 342ZM133 0L599 700H657L191 0H133ZM673 121H743V83H673V121ZM488 98L482 121H655L642 111V338L670 328L488 98ZM682 0H642V97L659 83H458L450 116L642 356H682V0Z" />
<glyph unicode="&#xbf;" horiz-adv-x="498" d="M273 333L281 207Q241 197 210 184T156 153T118 116T96 73T88 23Q88 -18 107 -50T160 -100T237 -119Q286 -119 331 -92T412 -8L448 -39Q407 -101 352 -135T235 -169Q178 -169 133 -144T62 -75T35 23Q35 60 49 93T88
155T147 205T222 238L232 333H273ZM293 494Q293 472 281 458T249 444Q228 444 217 457T205 494Q205 516 217 530T249 544Q270 544 281 531T293 494Z" />
<glyph unicode="&#xc0;" horiz-adv-x="647" d="M25 0L291 700H359L622 0H566L385 484Q373 515 365 539T348 585T332 631T314 687H331Q321 654 313 629T296 582T278 535T257 478L77 0H25ZM134 211L153 261H496L515 211H134ZM380 759L212 838L246 890L398 792L380 759Z" />
<glyph unicode="&#xc1;" horiz-adv-x="647" d="M25 0L291 700H359L622 0H566L385 484Q373 515 365 539T348 585T332 631T314 687H331Q321 654 313 629T296 582T278 535T257 478L77 0H25ZM134 211L153 261H496L515 211H134ZM269 759L251 792L403 890L437 838L269 759Z" />
<glyph unicode="&#xc2;" horiz-adv-x="647" d="M25 0L291 700H359L622 0H566L385 484Q373 515 365 539T348 585T332 631T314 687H331Q321 654 313 629T296 582T278 535T257 478L77 0H25ZM134 211L153 261H496L515 211H134ZM202 765L174 790L293 881H355L474 790L446
765L309 850H339L202 765Z" />
<glyph unicode="&#xc3;" horiz-adv-x="647" d="M25 0L291 700H359L622 0H566L385 484Q373 515 365 539T348 585T332 631T314 687H331Q321 654 313 629T296 582T278 535T257 478L77 0H25ZM134 211L153 261H496L515 211H134ZM394 779Q372 779 351 787T307 806Q295
811 283 817T259 823Q244 823 233 812T222 780H176Q176 821 199 845T255 869Q277 869 297 861T342 842Q353 837 366 831T390 825Q405 825 416 835T427 868H473Q473 841 463 821T434 790T394 779Z" />
<glyph unicode="&#xc4;" horiz-adv-x="647" d="M25 0L291 700H359L622 0H566L385 484Q373 515 365 539T348 585T332 631T314 687H331Q321 654 313 629T296 582T278 535T257 478L77 0H25ZM134 211L153 261H496L515 211H134ZM424 779Q402 779 390 791T378 824Q378
844 390 856T424 869Q446 869 458 857T470 824Q470 804 458 792T424 779ZM224 779Q202 779 190 791T178 824Q178 844 190 856T224 869Q246 869 258 857T270 824Q270 804 258 792T224 779Z" />
<glyph unicode="&#xc5;" horiz-adv-x="647" d="M25 0L291 700H359L622 0H566L385 484Q373 515 365 539T348 585T332 631T314 687H331Q321 654 313 629T296 582T278 535T257 478L77 0H25ZM134 211L153 261H496L515 211H134ZM323 691Q294 691 269 705T229 744T214
796Q214 825 229 849T269 887T323 902Q352 902 377 888T417 849T433 796Q433 768 418 744T377 706T323 691ZM323 730Q352 730 372 749T393 796Q393 826 373 844T323 863Q293 863 274 844T254 796Q254 769 274 750T323 730Z" />
<glyph unicode="&#xc6;" horiz-adv-x="942" d="M0 0L486 700H872V650H515V386H815V336H515V50H868V0H465V191H178L212 241H465V628L491 620L60 0H0Z" />
<glyph unicode="&#xc7;" horiz-adv-x="674" d="M403 -10Q326 -10 262 16T150 91T76 206T50 350Q50 428 75 492T146 605T255 679T393 705Q440 705 488 690T577 647T645 585L608 546Q586 578 551 602T475 641T393 655Q330 655 277 633T185 569T125 472T103 350Q103
283 125 226T187 128T282 63T403 40Q443 40 482 51T554 83T605 130L632 86Q608 58 571 37T490 3T403 -10ZM299 -230L292 -197Q322 -195 349 -189T393 -171T411 -140Q411 -123 396 -113T359 -100T318 -96L305 -86L365 6H409L366 -60Q413 -68 436 -87T459 -135Q459
-162 445 -180T407 -209T355 -225T299 -230Z" />
<glyph unicode="&#xc8;" horiz-adv-x="585" d="M108 0V700H515V650H158V50H511V0H108ZM132 336V386H458V336H132ZM379 759L211 838L245 890L397 792L379 759Z" />
<glyph unicode="&#xc9;" horiz-adv-x="585" d="M108 0V700H515V650H158V50H511V0H108ZM132 336V386H458V336H132ZM268 759L250 792L402 890L436 838L268 759Z" />
<glyph unicode="&#xca;" horiz-adv-x="585" d="M108 0V700H515V650H158V50H511V0H108ZM132 336V386H458V336H132ZM201 765L173 790L292 881H354L473 790L445 765L308 850H338L201 765Z" />
<glyph unicode="&#xcb;" horiz-adv-x="585" d="M108 0V700H515V650H158V50H511V0H108ZM132 336V386H458V336H132ZM423 779Q401 779 389 791T377 824Q377 844 389 856T423 869Q445 869 457 857T469 824Q469 804 457 792T423 779ZM223 779Q201 779 189 791T177 824Q177
844 189 856T223 869Q245 869 257 857T269 824Q269 804 257 792T223 779Z" />
<glyph unicode="&#xcc;" horiz-adv-x="412" d="M68 0V50H181V650H68V700H344V650H231V50H344V0H68ZM518 759L350 838L384 890L536 792L518 759Z" />
<glyph unicode="&#xcd;" horiz-adv-x="412" d="M68 0V50H181V650H68V700H344V650H231V50H344V0H68ZM407 759L389 792L541 890L575 838L407 759Z" />
<glyph unicode="&#xce;" horiz-adv-x="412" d="M68 0V50H181V650H68V700H344V650H231V50H344V0H68ZM340 765L312 790L431 881H493L612 790L584 765L447 850H477L340 765Z" />
<glyph unicode="&#xcf;" horiz-adv-x="412" d="M68 0V50H181V650H68V700H344V650H231V50H344V0H68ZM562 779Q540 779 528 791T516 824Q516 844 528 856T562 869Q584 869 596 857T608 824Q608 804 596 792T562 779ZM362 779Q340 779 328 791T316 824Q316 844 328
856T362 869Q384 869 396 857T408 824Q408 804 396 792T362 779Z" />
<glyph unicode="&#xd0;" horiz-adv-x="739" d="M42 327V372H310V327H42ZM108 0V700H363Q431 700 490 674T593 602T663 491T689 350Q689 274 664 210T594 99T490 26T363 0H108ZM158 33L144 50H358Q415 50 465 72T554 134T614 229T636 350Q636 416 614 470T554 565T466
628T358 650H141L158 665V33Z" />
<glyph unicode="&#xd1;" horiz-adv-x="781" d="M108 0V700H154L640 63L628 37Q627 45 627 79T626 160T625 258T624 351T623 417V700H673V0H625L136 641L150 669Q151 649 152 613T154 535T156 452T157 382T158 344V0H108ZM461 779Q439 779 418 787T374 806Q362
811 350 817T326 823Q311 823 300 812T289 780H243Q243 821 266 845T322 869Q344 869 364 861T409 842Q420 837 433 831T457 825Q472 825 483 835T494 868H540Q540 841 530 821T501 790T461 779Z" />
<glyph unicode="&#xd2;" horiz-adv-x="787" d="M393 -10Q318 -10 256 16T147 90T75 203T50 347Q50 425 75 490T146 604T255 678T393 705Q468 705 531 679T640 604T711 491T737 347Q737 269 712 204T640 91T531 17T393 -10ZM393 40Q456 40 509 62T602 126T662 224T684
347Q684 414 663 470T602 568T510 632T393 655Q330 655 277 632T185 568T125 471T103 347Q103 280 124 224T184 127T276 63T393 40ZM450 759L282 838L316 890L468 792L450 759Z" />
<glyph unicode="&#xd3;" horiz-adv-x="787" d="M393 -10Q318 -10 256 16T147 90T75 203T50 347Q50 425 75 490T146 604T255 678T393 705Q468 705 531 679T640 604T711 491T737 347Q737 269 712 204T640 91T531 17T393 -10ZM393 40Q456 40 509 62T602 126T662 224T684
347Q684 414 663 470T602 568T510 632T393 655Q330 655 277 632T185 568T125 471T103 347Q103 280 124 224T184 127T276 63T393 40ZM339 759L321 792L473 890L507 838L339 759Z" />
<glyph unicode="&#xd4;" horiz-adv-x="787" d="M393 -10Q318 -10 256 16T147 90T75 203T50 347Q50 425 75 490T146 604T255 678T393 705Q468 705 531 679T640 604T711 491T737 347Q737 269 712 204T640 91T531 17T393 -10ZM393 40Q456 40 509 62T602 126T662 224T684
347Q684 414 663 470T602 568T510 632T393 655Q330 655 277 632T185 568T125 471T103 347Q103 280 124 224T184 127T276 63T393 40ZM272 765L244 790L363 881H425L544 790L516 765L379 850H409L272 765Z" />
<glyph unicode="&#xd5;" horiz-adv-x="787" d="M393 -10Q318 -10 256 16T147 90T75 203T50 347Q50 425 75 490T146 604T255 678T393 705Q468 705 531 679T640 604T711 491T737 347Q737 269 712 204T640 91T531 17T393 -10ZM393 40Q456 40 509 62T602 126T662 224T684
347Q684 414 663 470T602 568T510 632T393 655Q330 655 277 632T185 568T125 471T103 347Q103 280 124 224T184 127T276 63T393 40ZM464 779Q442 779 421 787T377 806Q365 811 353 817T329 823Q314 823 303 812T292 780H246Q246 821 269 845T325 869Q347 869 367
861T412 842Q423 837 436 831T460 825Q475 825 486 835T497 868H543Q543 841 533 821T504 790T464 779Z" />
<glyph unicode="&#xd6;" horiz-adv-x="787" d="M393 -10Q318 -10 256 16T147 90T75 203T50 347Q50 425 75 490T146 604T255 678T393 705Q468 705 531 679T640 604T711 491T737 347Q737 269 712 204T640 91T531 17T393 -10ZM393 40Q456 40 509 62T602 126T662 224T684
347Q684 414 663 470T602 568T510 632T393 655Q330 655 277 632T185 568T125 471T103 347Q103 280 124 224T184 127T276 63T393 40ZM494 779Q472 779 460 791T448 824Q448 844 460 856T494 869Q516 869 528 857T540 824Q540 804 528 792T494 779ZM294 779Q272 779
260 791T248 824Q248 844 260 856T294 869Q316 869 328 857T340 824Q340 804 328 792T294 779Z" />
<glyph unicode="&#xd7;" horiz-adv-x="457" d="M381 94L40 435L75 470L417 129L381 94ZM74 97L40 131L380 471L414 437L74 97Z" />
<glyph unicode="&#xd8;" horiz-adv-x="787" d="M114 -30L80 2L671 725L705 693L114 -30ZM392 -10Q317 -10 255 16T146 90T74 203T49 347Q49 425 74 490T145 604T254 678T392 705Q467 705 530 679T639 604T710 491T736 347Q736 269 711 204T639 91T530 17T392 -10ZM392
40Q455 40 508 62T601 126T661 224T683 347Q683 414 662 470T601 568T509 632T392 655Q329 655 276 632T184 568T124 471T102 347Q102 280 123 224T183 127T275 63T392 40Z" />
<glyph unicode="&#xd9;" horiz-adv-x="753" d="M374 -7Q297 -7 237 28T142 126T108 268V700H158V277Q158 209 186 156T263 73T374 43Q439 43 489 73T567 156T596 277V700H645V268Q645 188 610 126T514 29T374 -7ZM433 759L265 838L299 890L451 792L433 759Z" />
<glyph unicode="&#xda;" horiz-adv-x="753" d="M374 -7Q297 -7 237 28T142 126T108 268V700H158V277Q158 209 186 156T263 73T374 43Q439 43 489 73T567 156T596 277V700H645V268Q645 188 610 126T514 29T374 -7ZM322 759L304 792L456 890L490 838L322 759Z" />
<glyph unicode="&#xdb;" horiz-adv-x="753" d="M374 -7Q297 -7 237 28T142 126T108 268V700H158V277Q158 209 186 156T263 73T374 43Q439 43 489 73T567 156T596 277V700H645V268Q645 188 610 126T514 29T374 -7ZM255 765L227 790L346 881H408L527 790L499 765L362
850H392L255 765Z" />
<glyph unicode="&#xdc;" horiz-adv-x="753" d="M374 -7Q297 -7 237 28T142 126T108 268V700H158V277Q158 209 186 156T263 73T374 43Q439 43 489 73T567 156T596 277V700H645V268Q645 188 610 126T514 29T374 -7ZM477 779Q455 779 443 791T431 824Q431 844 443
856T477 869Q499 869 511 857T523 824Q523 804 511 792T477 779ZM277 779Q255 779 243 791T231 824Q231 844 243 856T277 869Q299 869 311 857T323 824Q323 804 311 792T277 779Z" />
<glyph unicode="&#xdd;" horiz-adv-x="631" d="M301 0V349L308 300L25 700H87L335 348H318L548 700H606L335 289L350 357V0H301ZM261 759L243 792L395 890L429 838L261 759Z" />
<glyph unicode="&#xde;" horiz-adv-x="589" d="M108 0V700H158V553H349Q403 553 446 527T514 457T539 358Q539 303 514 259T446 188T348 161H158V0H108ZM158 215H347Q391 215 422 234T469 286T486 358Q486 397 469 429T421 480T347 499H158V215Z" />
<glyph unicode="&#xdf;" horiz-adv-x="633" d="M385 -10Q328 -10 285 12T215 69L251 103Q275 75 309 56T389 37Q455 37 495 79T535 191Q535 230 522 262T480 320T408 367T304 403V438Q343 444 372 456T421 484T450 522T460 569Q460 618 424 650T327 682Q247 682
202 632T157 503V0H107V499Q107 568 133 620T209 701T325 730Q382 730 424 710T490 654T513 576Q513 532 491 497T432 440T348 413L354 431Q415 414 459 390T531 336T572 270T586 192Q586 135 562 90T493 17T385 -10ZM35 436V483H141V436H35Z" />
<glyph unicode="&#xe0;" horiz-adv-x="607" d="M280 -10Q209 -10 153 25T65 121T32 260Q32 339 65 400T155 496T280 531Q320 531 356 519T421 486T471 435T501 372L481 385L486 520H534V0H484V130L501 149Q492 116 471 87T421 36T356 2T280 -10ZM287 40Q344 40
389 68T461 146T488 261Q488 325 462 374T391 452T287 481Q228 481 183 453T111 375T85 261Q85 198 110 148T181 69T287 40ZM350 849L196 950L229 995L371 880L350 849Z" />
<glyph unicode="&#xe1;" horiz-adv-x="607" d="M280 -10Q209 -10 153 25T65 121T32 260Q32 339 65 400T155 496T280 531Q320 531 356 519T421 486T471 435T501 372L481 385L486 520H534V0H484V130L501 149Q492 116 471 87T421 36T356 2T280 -10ZM287 40Q344 40
389 68T461 146T488 261Q488 325 462 374T391 452T287 481Q228 481 183 453T111 375T85 261Q85 198 110 148T181 69T287 40ZM247 849L226 880L368 995L401 950L247 849Z" />
<glyph unicode="&#xe2;" horiz-adv-x="607" d="M280 -10Q209 -10 153 25T65 121T32 260Q32 339 65 400T155 496T280 531Q320 531 356 519T421 486T471 435T501 372L481 385L486 520H534V0H484V130L501 149Q492 116 471 87T421 36T356 2T280 -10ZM287 40Q344 40
389 68T461 146T488 261Q488 325 462 374T391 452T287 481Q228 481 183 453T111 375T85 261Q85 198 110 148T181 69T287 40ZM192 859L164 884L273 985H335L444 884L416 859L289 956H319L192 859Z" />
<glyph unicode="&#xe3;" horiz-adv-x="607" d="M280 -10Q209 -10 153 25T65 121T32 260Q32 339 65 400T155 496T280 531Q320 531 356 519T421 486T471 435T501 372L481 385L486 520H534V0H484V130L501 149Q492 116 471 87T421 36T356 2T280 -10ZM287 40Q344 40
389 68T461 146T488 261Q488 325 462 374T391 452T287 481Q228 481 183 453T111 375T85 261Q85 198 110 148T181 69T287 40ZM369 868Q348 868 330 877T288 911Q278 921 269 926T248 931Q227 931 214 917T196 874L155 878Q160 920 186 947T253 974Q272 974 288 966T328
935Q338 925 347 918T371 911Q387 911 398 925T411 958L454 954Q451 930 440 911T411 880T369 868Z" />
<glyph unicode="&#xe4;" horiz-adv-x="607" d="M280 -10Q209 -10 153 25T65 121T32 260Q32 339 65 400T155 496T280 531Q320 531 356 519T421 486T471 435T501 372L481 385L486 520H534V0H484V130L501 149Q492 116 471 87T421 36T356 2T280 -10ZM287 40Q344 40
389 68T461 146T488 261Q488 325 462 374T391 452T287 481Q228 481 183 453T111 375T85 261Q85 198 110 148T181 69T287 40ZM399 876Q377 876 365 888T353 921Q353 941 365 953T399 966Q421 966 433 954T445 921Q445 901 433 889T399 876ZM208 875Q186 875 174
887T162 920Q162 940 174 952T208 965Q230 965 242 953T254 920Q254 900 242 888T208 875Z" />
<glyph unicode="&#xe5;" horiz-adv-x="607" d="M280 -10Q209 -10 153 25T65 121T32 260Q32 339 65 400T155 496T280 531Q320 531 356 519T421 486T471 435T501 372L481 385L486 520H534V0H484V130L501 149Q492 116 471 87T421 36T356 2T280 -10ZM287 40Q344 40
389 68T461 146T488 261Q488 325 462 374T391 452T287 481Q228 481 183 453T111 375T85 261Q85 198 110 148T181 69T287 40ZM303 841Q276 841 252 855T214 892T199 941Q199 969 213 991T251 1028T303 1042Q331 1042 355 1028T393 992T408 941Q408 915 394 892T355
855T303 841ZM303 880Q330 880 349 898T368 941Q368 969 349 986T303 1003Q275 1003 257 986T239 941Q239 916 258 898T303 880Z" />
<glyph unicode="&#xe6;" horiz-adv-x="882" d="M210 -10Q159 -10 119 10T56 65T32 149Q32 188 47 217T91 265T165 294T268 304H826L804 284V307Q805 347 787 387T730 454T634 481Q580 481 538 456T472 383T447 264Q447 196 471 146T542 68T656 40Q692 40 729 52T815
104L841 67Q819 46 790 29T725 1T647 -10Q573 -10 516 24T427 119T394 261Q394 325 411 375T460 460T536 513T635 531Q704 531 753 500T828 412T854 283L853 257H255Q214 257 183 250T129 229T96 196T85 151Q85 118 101 93T147 54T214 40Q257 40 296 55T365 98T414
161L446 124Q423 83 386 53T303 7T210 -10ZM394 289V364Q394 390 386 411T359 448T313 472T246 481Q192 481 150 459T70 395L34 430Q65 464 99 486T170 520T248 531Q292 531 327 521T386 490T424 441T438 374V289H394Z" />
<glyph unicode="&#xe7;" horiz-adv-x="518" d="M291 -10Q216 -10 158 25T66 121T32 261Q32 340 65 401T158 496T294 531Q358 531 410 506T498 436L466 397Q444 424 416 442T356 471T290 481Q231 481 185 453T112 375T85 261Q85 197 111 147T184 69T287 40Q320
40 352 50T412 78T463 124L495 85Q459 40 405 15T291 -10ZM198 -230L191 -197Q221 -195 248 -189T292 -171T310 -140Q310 -123 295 -113T258 -100T217 -96L204 -86L264 6H308L265 -60Q312 -68 335 -87T358 -135Q358 -162 344 -180T306 -209T254 -225T198 -230Z"
/>
<glyph unicode="&#xe8;" horiz-adv-x="540" d="M290 -10Q215 -10 157 24T65 119T32 261Q32 320 50 369T102 454T181 511T283 531Q337 531 380 513T454 462T499 383T512 282L511 255H69V301H484L462 283V307Q462 347 443 387T383 454T282 481Q225 481 181 456T111
383T85 264Q85 196 110 146T182 68T299 40Q336 40 375 52T463 104L489 67Q467 46 437 29T370 1T290 -10ZM328 849L174 950L207 995L349 880L328 849Z" />
<glyph unicode="&#xe9;" horiz-adv-x="540" d="M290 -10Q215 -10 157 24T65 119T32 261Q32 320 50 369T102 454T181 511T283 531Q337 531 380 513T454 462T499 383T512 282L511 255H69V301H484L462 283V307Q462 347 443 387T383 454T282 481Q225 481 181 456T111
383T85 264Q85 196 110 146T182 68T299 40Q336 40 375 52T463 104L489 67Q467 46 437 29T370 1T290 -10ZM225 849L204 880L346 995L379 950L225 849Z" />
<glyph unicode="&#xea;" horiz-adv-x="540" d="M290 -10Q215 -10 157 24T65 119T32 261Q32 320 50 369T102 454T181 511T283 531Q337 531 380 513T454 462T499 383T512 282L511 255H69V301H484L462 283V307Q462 347 443 387T383 454T282 481Q225 481 181 456T111
383T85 264Q85 196 110 146T182 68T299 40Q336 40 375 52T463 104L489 67Q467 46 437 29T370 1T290 -10ZM170 859L142 884L251 985H313L422 884L394 859L267 956H297L170 859Z" />
<glyph unicode="&#xeb;" horiz-adv-x="540" d="M290 -10Q215 -10 157 24T65 119T32 261Q32 320 50 369T102 454T181 511T283 531Q337 531 380 513T454 462T499 383T512 282L511 255H69V301H484L462 283V307Q462 347 443 387T383 454T282 481Q225 481 181 456T111
383T85 264Q85 196 110 146T182 68T299 40Q336 40 375 52T463 104L489 67Q467 46 437 29T370 1T290 -10ZM377 876Q355 876 343 888T331 921Q331 941 343 953T377 966Q399 966 411 954T423 921Q423 901 411 889T377 876ZM186 875Q164 875 152 887T140 920Q140 940
152 952T186 965Q208 965 220 953T232 920Q232 900 220 888T186 875Z" />
<glyph unicode="&#xec;" horiz-adv-x="200" d="M75 0V520H125V0H75ZM146 593L-8 694L25 739L167 624L146 593Z" />
<glyph unicode="&#xed;" horiz-adv-x="200" d="M75 0V520H125V0H75ZM43 593L22 624L164 739L197 694L43 593Z" />
<glyph unicode="&#xee;" horiz-adv-x="200" d="M75 0V520H125V0H75ZM-12 603L-40 628L69 729H131L240 628L212 603L85 700H115L-12 603Z" />
<glyph unicode="&#xef;" horiz-adv-x="200" d="M75 0V520H125V0H75ZM195 620Q173 620 161 632T149 665Q149 685 161 697T195 710Q217 710 229 698T241 665Q241 645 229 633T195 620ZM4 619Q-18 619 -30 631T-42 664Q-42 684 -30 696T4 709Q26 709 38 697T50 664Q50
644 38 632T4 619Z" />
<glyph unicode="&#xf0;" horiz-adv-x="559" d="M280 -10Q208 -10 152 25T64 122T32 263Q32 320 51 368T104 452T186 507T288 527Q337 527 378 506T450 451T495 378L473 381Q470 421 455 462T414 542T353 612T275 667T182 700L203 739Q263 725 313 696T402 626T470
530T512 409T527 266Q527 186 496 124T408 26T280 -10ZM280 40Q336 40 380 69T449 148T474 263Q474 326 449 375T380 453T280 481Q223 481 179 453T110 376T85 263Q85 198 110 148T179 69T280 40ZM152 551L144 592L335 642L359 648L477 679L488 638L394 614L372
608L152 551Z" />
<glyph unicode="&#xf1;" horiz-adv-x="558" d="M73 0V520H121L126 410H120Q131 443 160 470T229 514T315 531Q370 531 408 508T466 437T486 315V0H436V313Q436 371 421 408T375 464T300 483Q261 483 229 470T173 433T136 381T123 318V0H98Q97 0 92 0T73 0ZM374
868Q353 868 335 877T293 911Q283 921 274 926T253 931Q232 931 219 917T201 874L160 878Q165 920 191 947T258 974Q277 974 293 966T333 935Q343 925 352 918T376 911Q392 911 403 925T416 958L459 954Q456 930 445 911T416 880T374 868Z" />
<glyph unicode="&#xf2;" horiz-adv-x="599" d="M300 -10Q222 -10 162 25T67 122T32 263Q32 341 66 401T161 496T300 531Q378 531 438 497T533 402T567 263Q567 184 533 122T439 25T300 -10ZM300 40Q362 40 410 69T486 148T514 263Q514 326 487 375T411 453T300
481Q237 481 189 453T113 376T85 263Q85 198 112 148T188 69T300 40ZM346 849L192 950L225 995L367 880L346 849Z" />
<glyph unicode="&#xf3;" horiz-adv-x="599" d="M300 -10Q222 -10 162 25T67 122T32 263Q32 341 66 401T161 496T300 531Q378 531 438 497T533 402T567 263Q567 184 533 122T439 25T300 -10ZM300 40Q362 40 410 69T486 148T514 263Q514 326 487 375T411 453T300
481Q237 481 189 453T113 376T85 263Q85 198 112 148T188 69T300 40ZM243 849L222 880L364 995L397 950L243 849Z" />
<glyph unicode="&#xf4;" horiz-adv-x="599" d="M300 -10Q222 -10 162 25T67 122T32 263Q32 341 66 401T161 496T300 531Q378 531 438 497T533 402T567 263Q567 184 533 122T439 25T300 -10ZM300 40Q362 40 410 69T486 148T514 263Q514 326 487 375T411 453T300
481Q237 481 189 453T113 376T85 263Q85 198 112 148T188 69T300 40ZM188 859L160 884L269 985H331L440 884L412 859L285 956H315L188 859Z" />
<glyph unicode="&#xf5;" horiz-adv-x="599" d="M300 -10Q222 -10 162 25T67 122T32 263Q32 341 66 401T161 496T300 531Q378 531 438 497T533 402T567 263Q567 184 533 122T439 25T300 -10ZM300 40Q362 40 410 69T486 148T514 263Q514 326 487 375T411 453T300
481Q237 481 189 453T113 376T85 263Q85 198 112 148T188 69T300 40ZM365 868Q344 868 326 877T284 911Q274 921 265 926T244 931Q223 931 210 917T192 874L151 878Q156 920 182 947T249 974Q268 974 284 966T324 935Q334 925 343 918T367 911Q383 911 394 925T407
958L450 954Q447 930 436 911T407 880T365 868Z" />
<glyph unicode="&#xf6;" horiz-adv-x="599" d="M300 -10Q222 -10 162 25T67 122T32 263Q32 341 66 401T161 496T300 531Q378 531 438 497T533 402T567 263Q567 184 533 122T439 25T300 -10ZM300 40Q362 40 410 69T486 148T514 263Q514 326 487 375T411 453T300
481Q237 481 189 453T113 376T85 263Q85 198 112 148T188 69T300 40ZM395 876Q373 876 361 888T349 921Q349 941 361 953T395 966Q417 966 429 954T441 921Q441 901 429 889T395 876ZM204 875Q182 875 170 887T158 920Q158 940 170 952T204 965Q226 965 238 953T250
920Q250 900 238 888T204 875Z" />
<glyph unicode="&#xf7;" horiz-adv-x="591" d="M54 268V316H535V268H54ZM295 81Q280 81 270 86T255 102T249 126Q249 139 254 149T270 165T295 171Q310 171 320 166T335 150T341 126Q341 113 336 103T320 87T295 81ZM296 399Q281 399 271 404T256 420T250 444Q250
457 255 467T271 483T296 489Q311 489 321 484T336 468T342 444Q342 431 337 421T321 405T296 399Z" />
<glyph unicode="&#xf8;" horiz-adv-x="599" d="M85 -24L51 1L514 545L549 519L85 -24ZM300 -10Q222 -10 162 25T67 122T32 263Q32 341 66 401T161 496T300 531Q378 531 438 497T533 402T567 263Q567 184 533 122T439 25T300 -10ZM300 40Q362 40 410 69T486 148T514
263Q514 326 487 375T411 453T300 481Q237 481 189 453T113 376T85 263Q85 198 112 148T188 69T300 40Z" />
<glyph unicode="&#xf9;" horiz-adv-x="560" d="M260 -10Q196 -10 155 13T93 83T72 205V520H122V207Q122 149 137 112T183 56T261 38Q298 38 330 51T386 87T423 139T437 202V520H487V0H439L434 110H440Q429 77 401 50T336 7T260 -10ZM326 849L172 950L205 995L347
880L326 849Z" />
<glyph unicode="&#xfa;" horiz-adv-x="560" d="M260 -10Q196 -10 155 13T93 83T72 205V520H122V207Q122 149 137 112T183 56T261 38Q298 38 330 51T386 87T423 139T437 202V520H487V0H439L434 110H440Q429 77 401 50T336 7T260 -10ZM223 849L202 880L344 995L377
950L223 849Z" />
<glyph unicode="&#xfb;" horiz-adv-x="560" d="M260 -10Q196 -10 155 13T93 83T72 205V520H122V207Q122 149 137 112T183 56T261 38Q298 38 330 51T386 87T423 139T437 202V520H487V0H439L434 110H440Q429 77 401 50T336 7T260 -10ZM168 859L140 884L249 985H311L420
884L392 859L265 956H295L168 859Z" />
<glyph unicode="&#xfc;" horiz-adv-x="560" d="M260 -10Q196 -10 155 13T93 83T72 205V520H122V207Q122 149 137 112T183 56T261 38Q298 38 330 51T386 87T423 139T437 202V520H487V0H439L434 110H440Q429 77 401 50T336 7T260 -10ZM375 876Q353 876 341 888T329
921Q329 941 341 953T375 966Q397 966 409 954T421 921Q421 901 409 889T375 876ZM184 875Q162 875 150 887T138 920Q138 940 150 952T184 965Q206 965 218 953T230 920Q230 900 218 888T184 875Z" />
<glyph unicode="&#xfd;" horiz-adv-x="520" d="M162 -230L259 17L270 -43L8 520H61L254 106Q265 84 273 62T292 17L262 29Q268 43 273 57T285 86L459 520H512L305 0L214 -230H162ZM203 849L182 880L324 995L357 950L203 849Z" />
<glyph unicode="&#xfe;" horiz-adv-x="613" d="M73 -220V740H123V385L113 373Q126 418 157 453T234 510T332 531Q384 531 429 511T508 455T562 369T581 260Q581 182 549 121T460 25T332 -10Q279 -10 234 11T158 67T113 148L123 135V-220H73ZM324 40Q384 40 430
68T502 147T528 260Q528 324 502 374T429 452T324 481Q265 481 219 453T146 375T119 261Q119 196 146 147T219 69T324 40Z" />
<glyph unicode="&#xff;" horiz-adv-x="520" d="M162 -230L259 17L270 -43L8 520H61L254 106Q265 84 273 62T292 17L262 29Q268 43 273 57T285 86L459 520H512L305 0L214 -230H162ZM355 876Q333 876 321 888T309 921Q309 941 321 953T355 966Q377 966 389 954T401
921Q401 901 389 889T355 876ZM164 875Q142 875 130 887T118 920Q118 940 130 952T164 965Q186 965 198 953T210 920Q210 900 198 888T164 875Z" />
<glyph unicode="&#x2013;" horiz-adv-x="514" d="M53 267V316H461V267H53Z" />
<glyph unicode="&#x2014;" horiz-adv-x="868" d="M53 267V317H815V267H53Z" />
<glyph unicode="&#x2018;" horiz-adv-x="238" d="M129 526Q109 526 95 535T73 563T65 607Q65 631 70 650T88 687T119 721T165 752L183 726Q155 709 140 690T125 650Q125 638 128 628T148 604Q157 597 163 587T170 566Q170 548 159 537T129 526Z" />
<glyph unicode="&#x2019;" horiz-adv-x="238" d="M73 527L55 553Q83 570 98 589T113 629Q113 641 110 651T90 675Q81 682 75 692T68 713Q68 731 79 742T109 753Q130 753 144 744T165 716T173 672Q173 648 168 629T150 592T119 558T73 527Z" />
<glyph unicode="&#x201a;" horiz-adv-x="233" d="M78 -151L60 -125Q88 -108 103 -89T118 -49Q118 -37 115 -27T95 -3Q86 4 80 14T73 37Q73 54 84 64T114 75Q135 75 149 66T170 38T178 -6Q178 -30 173 -49T155 -86T124 -120T78 -151Z" />
<glyph unicode="&#x201c;" horiz-adv-x="405" d="M129 777Q109 777 95 786T73 814T65 858Q65 882 70 901T88 938T119 972T165 1003L183 977Q155 960 140 941T125 901Q125 889 128 879T148 855Q157 848 163 838T170 817Q170 799 159 788T129 777ZM296 521Q276 521
262 530T240 558T232 602Q232 626 237 645T255 682T286 716T332 747L350 721Q322 704 307 685T292 645Q292 633 295 623T315 599Q324 592 330 582T337 561Q337 543 326 532T296 521Z" />
<glyph unicode="&#x201d;" horiz-adv-x="408" d="M73 527L55 553Q83 570 98 589T113 629Q113 641 110 651T90 675Q81 682 75 692T68 713Q68 731 79 742T109 753Q130 753 144 744T165 716T173 672Q173 648 168 629T150 592T119 558T73 527ZM243 527L225 553Q253
570 268 589T283 629Q283 641 280 651T260 675Q251 682 245 692T238 713Q238 731 249 742T279 753Q300 753 314 744T335 716T343 672Q343 648 338 629T320 592T289 558T243 527Z" />
<glyph unicode="&#x201e;" horiz-adv-x="418" d="M78 -151L60 -125Q88 -108 103 -89T118 -49Q118 -37 115 -27T95 -3Q86 4 80 14T73 37Q73 54 84 64T114 75Q135 75 149 66T170 38T178 -6Q178 -30 173 -49T155 -86T124 -120T78 -151ZM263 -151L245 -125Q273 -108
288 -89T303 -49Q303 -37 300 -27T280 -3Q271 4 265 14T258 37Q258 54 269 64T299 75Q320 75 334 66T355 38T363 -6Q363 -30 358 -49T340 -86T309 -120T263 -151Z" />
<glyph unicode="&#x2022;" horiz-adv-x="347" d="M172 244Q145 244 122 258T84 295T70 346Q70 375 84 398T121 436T172 450Q201 450 225 436T263 399T277 346Q277 318 263 295T225 258T172 244Z" />
<glyph unicode="&#x2039;" horiz-adv-x="273" d="M199 52L39 259V261L199 468L239 443L97 252V268L238 78L199 52Z" />
<glyph unicode="&#x203a;" horiz-adv-x="275" d="M74 53L34 78L176 269V253L35 443L74 469L234 262V260L74 53Z" />
</font>
</defs>
</svg>
